Dont Miss To Get Latest Movies and Tv Show Direct In Your Inbox Enter your email address:  

Hume Tumse Pyaar Kitna (2019) PreDVD Rip 720p

July 11, 2019 Bollywood 720p DVDRip

Changed Domain Please Use Our New Domain https://7starhd-com.prox3.info 

Download Here                   Watch Now

Hume Tumse Pyaar Kitna (2019) PreDVD Rip 720p

IMDB Link

Complete name : Hume Tumse Pyaar Kitna (2019) PreDVD Rip
Format : MPEG-4
Format profile : Base Media / Version 2
Codec ID : mp42 (mp42)
File size : 529 MiB
Duration : 1 h 43 min
Overall bit rate : 714 kb/s
Codirector : codirector
Production studio : studio

Video
Format : AVC
Format/Info : Advanced Video Codec
Format profile : [email protected]
Format settings, CABAC : Yes
Format settings, RefFrames : 4 frames
Muxing mode : Container [email protected]
Codec ID : avc1
Codec ID/Info : Advanced Video Coding
Duration : 1 h 43 min
Bit rate : 515 kb/s
Width : 720 pixels
Height : 300 pixels
Display aspect ratio : 2.40:1
Frame rate mode : Constant
Frame rate : 25.000 FPS
Color space : YUV
Chroma subsampling : 4:2:0
Bit depth : 8 bits
Scan type : Progressive
Bits/(Pixel*Frame) : 0.095
Stream size : 382 MiB (72%)
Language : English

Audio
Format : AAC
Format/Info : Advanced Audio Codec
Format profile : LC
Codec ID : 40
Duration : 1 h 43 min
Bit rate mode : Constant
Bit rate : 192 kb/s
Channel(s) : 2 channels
Channel positions : Front: L R
Sampling rate : 44.1 kHz
Frame rate : 43.066 FPS (1024 SPF)
Compression mode : Lossy
Stream size : 142 MiB (27%)
Title : Stereo
Language : English
Default : Yes








TheFilesLocker Link

BDupload Link

Indishare Link

Clicknupload Link

openload Link

uploadbuzz Link

Note: If you Can’t See the links Please Use VPN or any proxy thanks

Download Here                   Watch Now
How to Download ? ]

Comments