Dont Miss To Get Latest Movies and Tv Show Direct In Your Inbox Enter your email address:  

Agnee 2 (2015) Bengali Full Movie HDRip 720p

July 11, 2019 Bangladeshi Movies

Changed Domain Please Use Our New Domain https://7starhd-com.prox3.info 

Download Here                   Watch Now

Agnee 2 (2015) Bengali Full Movie HDRip 720p

IMDB Link

Complete name : Agnee 2 (2015) Bengali Full Movie HDRip
Format : MPEG-4
Format profile : Base Media / Version 2
Codec ID : mp42 (mp42)
File size : 700 MiB
Duration : 2 h 17 min
Overall bit rate : 711 kb/s
Codirector : codirector
Production studio : studio

Video
Format : AVC
Format/Info : Advanced Video Codec
Format profile : [email protected]
Format settings, CABAC : Yes
Format settings, RefFrames : 4 frames
Muxing mode : Container [email protected]
Codec ID : avc1
Codec ID/Info : Advanced Video Coding
Duration : 2 h 17 min
Bit rate : 513 kb/s
Width : 720 pixels
Height : 302 pixels
Display aspect ratio : 2.40:1
Frame rate mode : Constant
Frame rate : 25.000 FPS
Color space : YUV
Chroma subsampling : 4:2:0
Bit depth : 8 bits
Scan type : Progressive
Bits/(Pixel*Frame) : 0.094
Stream size : 505 MiB (72%)
Language : English

Audio
Format : AAC
Format/Info : Advanced Audio Codec
Format profile : LC
Codec ID : 40
Duration : 2 h 17 min
Bit rate mode : Constant
Bit rate : 192 kb/s
Channel(s) : 2 channels
Channel positions : Front: L R
Sampling rate : 44.1 kHz
Frame rate : 43.066 FPS (1024 SPF)
Compression mode : Lossy
Stream size : 189 MiB (27%)
Title : Stereo
Language : English
Default : Yes








TheFilesLocker Link

BDupload Link

Indishare Link

Clicknupload Link

uploadbuzz Link

uppom Link

Note: If you Can’t See the links Please Use VPN or any proxy thanks

Download Here                   Watch Now
How to Download ? ]

Comments